[SubbyGirls.com]Ash Hollywood, Ashley, Ela Darling, Kate England, Nickey Huntsman, Val Dodds, Mia, Jessica Ryan, Kasey Warner (6 роликов) [2015 г., FemDom, LezDom, Slut,Pussy Licking. 720p]

  • Объявления

 Статистика раздачи 
Размер: 576.35 МБ   |  Зарегистрирован: 06 дек 2015, 19:56
Сидеров: 0  [ 0 байт/сек ]     Личеров: 0  [ 0 байт/сек ]  

Сообщение DrChalupa » 06 дек 2015, 19:56

Год производства: 2015 г.


Страна: USA

Жанр: FemDom, LezDom, Slut,Pussy Licking

Студия: SubbyGirls.com

В ролях: Ash Hollywood, Ashley, Ela Darling, Kate England, Nickey Huntsman, Val, Mia, Jessica Ryan
Тип HD видео: 720p

mediainfo
Video
ID : 1
Format : AVC
Format/Info : Advanced Video Codec
Format profile : [email protected]
Format settings, CABAC : Yes
Format settings, ReFrames : 5 frames
Codec ID : avc1
Codec ID/Info : Advanced Video Coding
Duration : 4mn 53s
Bit rate : 3 556 Kbps
Width : 1 280 pixels
Height : 720 pixels
Display aspect ratio : 16:9
Frame rate mode : Constant
Frame rate : 29.970 fps
Color space : YUV
Chroma subsampling : 4:2:0
Bit depth : 8 bits
Scan type : Progressive
Bits/(Pixel*Frame) : 0.129
Stream size : 124 MiB (95%)
Writing library : x264 core 142 r2479 dd79a61
Encoding settings : cabac=1 / ref=5 / deblock=1:0:0 / analyse=0x3:0x113 / me=umh / subme=8 / psy=1 / psy_rd=1.00:0.00 / mixed_ref=1 / me_range=16 / chroma_me=1 / trellis=1 / 8x8dct=1 / cqm=0 / deadzone=21,11 / fast_pskip=1 / chroma_qp_offset=-2 / threads=12 / lookahead_threads=2 / sliced_threads=0 / nr=0 / decimate=1 / interlaced=0 / bluray_compat=0 / constrained_intra=0 / bframes=3 / b_pyramid=2 / b_adapt=2 / b_bias=0 / direct=3 / weightb=1 / open_gop=0 / weightp=2 / keyint=300 / keyint_min=30 / scenecut=40 / intra_refresh=0 / rc_lookahead=50 / rc=crf / mbtree=1 / crf=20.0 / qcomp=0.60 / qpmin=0 / qpmax=69 / qpstep=4 / vbv_maxrate=25000 / vbv_bufsize=31250 / crf_max=0.0 / nal_hrd=none / filler=0 / ip_ratio=1.40 / aq=1:1.00
Color range : Limited
Color primaries : BT.709
Transfer characteristics : BT.709
Matrix coefficients : BT.709

Audio
ID : 2
Format : AAC
Format/Info : Advanced Audio Codec
Format profile : LC
Codec ID : 40
Duration : 4mn 53s
Bit rate mode : Variable
Bit rate : 192 Kbps
Channel(s) : 2 channels
Channel positions : Front: L R
Sampling rate : 48.0 KHz
Compression mode : Lossy
Stream size : 6.72 MiB (5%)
Title : Stereo / Stereo
Language : English
Скриншоты
AccentPillows
Sure, I suppose Miss V has some interest in the accent pillow Ela is showing her. But really what Miss V wants right now is to see Ela’s eyes looking back up at her from the kneeling position as her tongue works away between her legs.
ComeHitherPet
Having just got home, naturally Ela needs to be licked. So straight to her lounge chair she goes and off come her shorts for her cute pet Kasey to do what she does best, to kneel and orally serve.
MyCuteSlaveGirlPart1
Kate loves to film her pretty pets, like adorable Nickey who is far away on the couch reading a book. Not for long though as Kate calls her over both to show her off to the camera and then to have her work on her feet.
MyCuteSlaveGirlPart2
Having Nickey’s tongue on her feet is comfortable for Kate, but Nickey’s mouth needs to be where it belongs, namely between Kates legs. Now Kate can sit back comfortably on her beanbag and film while she is being orally served.
WhatIfITakeItAway
It would be bad for Ashley if Ash took her pussy away and didn’t let her lick it anymore. But that’s an empty threat mind you, as Ash loves her morning cunnilingus and frequently will wake up with a woman licking between her legs.
YouMakeAGoodPussyEater
Licking pussy is most certainly one of pretty Mia’s specialties. Naturally this makes it something that Jessica takes full advantage of on a regular basis as she lies back on a comfy lounge chair while her pretty pet does what she does best.
   
Торрент: Зарегистрирован [06 дек 2015, 19:56] Скачать торрент
Скачать торрент
[ Размер 12.7 КБ ]
Статус:
 
.torrent скачан: 47 раз
Хэш: 663370ff5de7df3aedc4253b8c5926849764a5d1
Размер: 576.35 МБ (604 348 425 байт)
   
Аватара пользователя
DrChalupa
Администратор
Администратор
 
Раздал: 7.46 ТБ
Скачал: 2.85 ГБ
Ратио: 2684.533
Сообщения: 29003
Зарегистрирован: 30 окт 2014, 09:42

Объявления

Вернуться в Женское доминирование и страпон / Femdom & Strapon



cron