[brutal-facesitting.com]Cassidy - (Updated: 30 October 2015) (aka Assoli, Daryl Croft, Aruna Aghora)[2015 г., Femdom, Slave, Cunilingus, Pussy And Ass Worship 720p]

  • Объявления

 Статистика раздачи 
Размер: 488.69 МБ   |  Зарегистрирован: 06 дек 2015, 19:54
Сидеров: 0  [ 0 байт/сек ]     Личеров: 1  [ 0 байт/сек ]  

Сообщение DrChalupa » 06 дек 2015, 19:54

Cassidy



Год производства: 2015 г.

Страна:Россия

Жанр: Femdom, Slave, Cunilingus, Pussy And Ass Worship

Продолжительность: 00:17:00

Студия: brutal-facesitting.com

В ролях: Cassidy

Описание:
Cassidy got her slave standing on his knees and making him to widely open his mouth for inspection. She pulls out his tongue, and checking out if it is going to be good enough for the upcoming entertainment. The slave’s tongue should be long and rough, and in this case everything will be just great, as it should be. Another thing is that the slave has to get hardly slapped on his face, so he will know where his place is and what his Mistress wants from him. She makes her slave to caress her pussy and asshole and at the end she enjoys a magnificent orgasm.


Тип HD видео: 720p
Mediainfo
Format : Windows Media
File size : 489 MiB
Duration : 17mn 5s
Overall bit rate mode : Constant
Overall bit rate : 3 997 Kbps
Maximum Overall bit rate : 4 018 Kbps
Encoded date : UTC 2015-11-01 10:22:00.522
SfOriginalFPS : 300000

Video
ID : 2
Format : VC-1
Format profile : [email protected]
Codec ID : WMV3
Codec ID/Info : Windows Media Video 9
Codec ID/Hint : WMV3
Description of the codec : Windows Media Video 9 - Professional
Duration : 17mn 5s
Bit rate mode : Constant
Bit rate : 3 793 Kbps
Width : 1 280 pixels
Height : 720 pixels
Display aspect ratio : 16:9
Frame rate : 30.000 fps
Bit depth : 8 bits
Compression mode : Lossy
Bits/(Pixel*Frame) : 0.137
Stream size : 464 MiB (95%)
Language : Russian

Audio
ID : 1
Format : WMA
Format version : Version 2
Codec ID : 161
Codec ID/Info : Windows Media Audio
Description of the codec : Windows Media Audio 9.2 - 192 kbps, 48 kHz, stereo (A/V) 1-pass CBR
Duration : 17mn 5s
Bit rate mode : Constant
Bit rate : 192 Kbps
Channel(s) : 2 channels
Sampling rate : 48.0 KHz
Bit depth : 16 bits
Stream size : 23.5 MiB (5%)
Language : Russian


Скринлисты
Скриншоты
   
Торрент: Зарегистрирован [06 дек 2015, 19:54] Скачать торрент
Скачать торрент
[ Размер 19.56 КБ ]
Статус:
 
.torrent скачан: 86 раз
Хэш: 1f42a0734bea8d93b41d3fee01c74f5036dd4938
Размер: 488.69 МБ (512 427 597 байт)
   
Аватара пользователя
DrChalupa
Администратор
Администратор
 
Раздал: 7.46 ТБ
Скачал: 2.85 ГБ
Ратио: 2684.533
Сообщения: 29003
Зарегистрирован: 30 окт 2014, 09:42

Объявления

Вернуться в Женское доминирование и страпон / Femdom & Strapon



cron