[Femaleworship.com]Edyn Blair, Ash Hollywood, Elsa Jean, Dava Foxx, Lyra Louvel, Nora Nova, Ela Darling (7роликов) [2015 г., FemDom, Female Worship,Pussy Licking. 720p]

  • Объявления

 Статистика раздачи 
Размер: 933.4 МБ   |  Зарегистрирован: 06 дек 2015, 20:08
Сидеров: 0  [ 0 байт/сек ]     Личеров: 0  [ 0 байт/сек ]  

Сообщение DrChalupa » 06 дек 2015, 20:08



Год производства: 2015 г.


Страна: USA

Жанр: FemDom, Female Worship,Pussy Licking

Студия: Femaleworship.com

В ролях: Edyn Blair, Ash Hollywood, Elsa Jean, Dava Foxx, Lyra Louvel, Nora Nova, Ela Darling
Тип HD видео: 720p


mediainfo
Codec ID : mp42
Overall bit rate mode : Variable
Overall bit rate : 1 930 Kbps
Encoded date : UTC 2036-02-06 06:28:16
Tagged date : UTC 2036-02-06 06:28:16
Writing application : HandBrake 0.10.2 2015060900

Video
ID : 1
Format : AVC
Format/Info : Advanced Video Codec
Format profile : [email protected]
Format settings, CABAC : Yes
Format settings, ReFrames : 5 frames
Codec ID : avc1
Codec ID/Info : Advanced Video Coding
Bit rate : 1 731 Kbps
Width : 1 280 pixels
Height : 720 pixels
Display aspect ratio : 16:9
Frame rate mode : Constant
Frame rate : 29.970 fps
Color space : YUV
Chroma subsampling : 4:2:0
Bit depth : 8 bits
Scan type : Progressive
Bits/(Pixel*Frame) : 0.063
Stream size : 56.2 MiB (90%)
Writing library : x264 core 142 r2479 dd79a61
Encoding settings : cabac=1 / ref=5 / deblock=1:0:0 / analyse=0x3:0x113 / me=umh / subme=8 / psy=1 / psy_rd=1.00:0.00 / mixed_ref=1 / me_range=16 / chroma_me=1 / trellis=1 / 8x8dct=1 / cqm=0 / deadzone=21,11 / fast_pskip=1 / chroma_qp_offset=-2 / threads=12 / lookahead_threads=2 / sliced_threads=0 / nr=0 / decimate=1 / interlaced=0 / bluray_compat=0 / constrained_intra=0 / bframes=3 / b_pyramid=2 / b_adapt=2 / b_bias=0 / direct=3 / weightb=1 / open_gop=0 / weightp=2 / keyint=300 / keyint_min=30 / scenecut=40 / intra_refresh=0 / rc_lookahead=50 / rc=crf / mbtree=1 / crf=20.0 / qcomp=0.60 / qpmin=0 / qpmax=69 / qpstep=4 / vbv_maxrate=25000 / vbv_bufsize=31250 / crf_max=0.0 / nal_hrd=none / filler=0 / ip_ratio=1.40 / aq=1:1.00
Encoded date : UTC 2036-02-06 06:28:16
Tagged date : UTC 2036-02-06 06:28:16
Color range : Limited
Color primaries : BT.709
Transfer characteristics : BT.709
Matrix coefficients : BT.709

Audio
ID : 2
Format : AAC
Format/Info : Advanced Audio Codec
Format profile : LC
Codec ID : 40
Duration : 4mn 32s
Bit rate mode : Variable
Bit rate : 192 Kbps
Channel(s) : 2 channels
Channel positions : Front: L R
Sampling rate : 48.0 KHz
Compression mode : Lossy
Stream size : 6.24 MiB (10%)
Title : Stereo / Stereo
Language : English
Encoded date : UTC 2036-02-06 06:28:16
Tagged date : UTC 2036-02-06 06:28:16
Back To My Feet
Elsa loves having her feet adored by her man while she relaxes and texts her girlfriends. But seeing him worshiping her from down below has made her horny. Now his attention will be temporarily diverted to her pussy, which needs immediate oral attention.
Dont Forget To Say Please
Men with manners tend to be more appreciated by women. Remembering to say please and thank you goes a long way, and often gets rewarded with access to that treasured area between Edyn's legs.

I Want More
Reading a book with her man at her feet is nice, but Nora wants more. So while his mouth starts at her legs, it inevitably finds its way between her legs to provide her with more intimate service.
Proper Elliptical
Does proper use of the elliptical involve ass eating? I'm not really sure. But that does seem to be Lyra's preferred method, to have her asshole serviced after she has done her cardio training.
Right Here In The Kitchen
Where does Dava like to have her pussy licked? Well, right here in the kitchen will work just fine. After all why not enjoy some oral adoration while checking her email.
Your Face Looks Better With Cum
It does seem like a man's face looks better with female cum on it doesn't it? That shows that he has served his lady well and earned his place by her side. His face seems a bit too clean right now but no worries, Ela will correct that for him.
I Want To Reward You
Ash knows her pussy is always a reward to men. That's why she gives her man oral access to it when she sees him preparing her bath, because good male behavior does get frequently rewarded.
   
Торрент: Зарегистрирован [06 дек 2015, 20:08] Скачать торрент
Скачать торрент
[ Размер 19.88 КБ ]
Статус:
 
.torrent скачан: 85 раз
Хэш: 542254338d6fb025dfec2670cfaf0414cd2728dd
Размер: 933.4 МБ (978 740 638 байт)
   
Аватара пользователя
DrChalupa
Администратор
Администратор
 
Раздал: 7.46 ТБ
Скачал: 2.85 ГБ
Ратио: 2684.533
Сообщения: 29003
Зарегистрирован: 30 окт 2014, 09:42

Объявления

Вернуться в Женское доминирование и страпон / Femdom & Strapon



cron