Amateurs Wanted Vol. 2 / Любители Требуются Vol. 2 (Net Video Girls) [2015 г., 18+ Teens, Amateur, Gonzo, Casting, WEB-DL] (Split Scenes)

 Статистика раздачи 
Размер: 3.27 ГБ   |  Зарегистрирован: 21 июл 2015, 01:42
Сидеров: 0  [ 0 байт/сек ]     Личеров: 1  [ 0 байт/сек ]  

Сообщение DrChalupa » 21 июл 2015, 01:42

Amateurs Wanted Vol. 2 / Любители Требуются Vol. 2

Год производства: 2015 г.
Страна: USA
Жанр: 18+ Teens, Amateur, Gonzo, Casting
Продолжительность: 02:56:00
Язык: Английский

Студия: Net Video Girls

В ролях: Samantha (VIII), Emi, Rosie, Heidi (II)

Описание: Ordinary Girls. Extraordinary Auditions.

Put out an ad for sexy young models and you'll quickly discover just how far some girls are willing to go to make it big. Once the interview begins, it dawns on these young beauties that something quite different is going on here, but they want fame and fortune so bad, that they stick around. Soon, we have them naked, spread and willing to do whatever we ask!
Video
ID : 1
Format : AVC
Format/Info : Advanced Video Codec
Format profile : [email protected]
Format settings, CABAC : Yes
Format settings, ReFrames : 4 frames
Codec ID : avc1
Codec ID/Info : Advanced Video Coding
Duration : 34mn 33s
Bit rate mode : Variable
Bit rate : 2 500 Kbps
Width : 656 pixels
Height : 368 pixels
Display aspect ratio : 16:9
Frame rate mode : Variable
Frame rate : 29.970 fps
Minimum frame rate : 29.960 fps
Maximum frame rate : 29.970 fps
Color space : YUV
Chroma subsampling : 4:2:0
Bit depth : 8 bits
Scan type : Progressive
Bits/(Pixel*Frame) : 0.346
Stream size : 607 MiB (95%)
Writing library : x264 core 130 r2273 b3065e6
Encoding settings : cabac=1 / ref=1 / deblock=1:0:0 / analyse=0x1:0x111 / me=hex / subme=2 / psy=1 / psy_rd=1.00:0.00 / mixed_ref=0 / me_range=16 / chroma_me=1 / trellis=0 / 8x8dct=0 / cqm=0 / deadzone=21,11 / fast_pskip=1 / chroma_qp_offset=0 / threads=36 / lookahead_threads=2 / sliced_threads=0 / nr=0 / decimate=1 / interlaced=0 / bluray_compat=0 / constrained_intra=0 / bframes=3 / b_pyramid=2 / b_adapt=1 / b_bias=0 / direct=1 / weightb=1 / open_gop=0 / weightp=1 / keyint=300 / keyint_min=30 / scenecut=40 / intra_refresh=0 / rc_lookahead=10 / rc=abr / mbtree=1 / bitrate=2500 / ratetol=1.0 / qcomp=0.60 / qpmin=0 / qpmax=69 / qpstep=4 / vbv_maxrate=20000 / vbv_bufsize=25000 / nal_hrd=none / ip_ratio=1.40 / aq=1:1.00
Encoded date : UTC 2014-04-17 22:39:45
Tagged date : UTC 2014-04-17 22:56:22
Color primaries : BT.709-5, BT.1361, IEC 61966-2-4, SMPTE RP177
Transfer characteristics : BT.709-5, BT.1361
Matrix coefficients : BT.709-5, BT.1361, IEC 61966-2-4 709, SMPTE RP177

Audio
ID : 2
Format : AAC
Format/Info : Advanced Audio Codec
Format profile : LC
Codec ID : 40
Duration : 34mn 33s
Bit rate mode : Variable
Bit rate : 128 Kbps
Maximum bit rate : 140 Kbps
Channel(s) : 2 channels
Channel positions : Front: L R
Sampling rate : 48.0 KHz
Compression mode : Lossy
Delay relative to video : -67ms
Stream size : 31.8 MiB (5%)
Language : English
Разбит на эпизоды: Да
Качество видео: WEB-DL
Формат видео: MP4
Видео: MPEG4 Video (H264) 656x368
Аудио: AAC 48000Hz stereo 1536kbps
Скриншоты
   
Торрент: Зарегистрирован [21 июл 2015, 01:42] Скачать торрент
Скачать торрент
[ Размер 131.2 КБ ]
Статус:
 
.torrent скачан: 10 раз
Хэш: 618b69b1f38c67a180de17a157e08ef89e226898
Размер: 3.27 ГБ (3 506 253 501 байт)
   
Аватара пользователя
DrChalupa
Администратор
Администратор
 
Раздал: 7.46 ТБ
Скачал: 2.85 ГБ
Ратио: 2684.533
Сообщения: 29003
Зарегистрирован: 30 окт 2014, 09:42

Объявления

Вернуться в Гонзо-фильмы / Gonzo & All Sex



cron