Office Obsession 2 / Управление Одержимость 2 (Babes) [2015 г., Office, Role Play, Big Tits, Big Ass, WEB-DL] (Split Scenes)

 Статистика раздачи 
Размер: 1.46 ГБ   |  Зарегистрирован: 21 июл 2015, 01:38
Сидеров: 0  [ 0 байт/сек ]     Личеров: 1  [ 0 байт/сек ]  

Сообщение DrChalupa » 21 июл 2015, 01:38

Office Obsession 2 / Управление Одержимость 2

Год производства: 2015 г.
Страна: USA
Жанр: Office, Role Play, Big Tits, Big Ass
Продолжительность:
Язык: Английский

Студия: Babes

В ролях: Alexa Tomas, Corrina blake, Isabella De Santos, Vanessa Cage, Sheri VI
Video
ID : 1
Format : AVC
Format/Info : Advanced Video Codec
Format profile : [email protected]
Format settings, CABAC : Yes
Format settings, ReFrames : 5 frames
Codec ID : avc1
Codec ID/Info : Advanced Video Coding
Duration : 28mn 30s
Bit rate : 1 500 Kbps
Width : 854 pixels
Height : 480 pixels
Display aspect ratio : 16:9
Original display aspect ratio : 16:9
Frame rate mode : Constant
Frame rate : 23.976 fps
Color space : YUV
Chroma subsampling : 4:2:0
Bit depth : 8 bits
Scan type : Progressive
Bits/(Pixel*Frame) : 0.153
Stream size : 305 MiB (88%)
Writing library : x264 core 142 r2389 956c8d8
Encoding settings : cabac=1 / ref=5 / deblock=1:0:0 / analyse=0x3:0x113 / me=umh / subme=8 / psy=1 / psy_rd=1.00:0.00 / mixed_ref=1 / me_range=16 / chroma_me=1 / trellis=1 / 8x8dct=1 / cqm=0 / deadzone=21,11 / fast_pskip=1 / chroma_qp_offset=-2 / threads=6 / lookahead_threads=1 / sliced_threads=0 / nr=0 / decimate=1 / interlaced=0 / bluray_compat=0 / constrained_intra=0 / bframes=3 / b_pyramid=2 / b_adapt=2 / b_bias=0 / direct=3 / weightb=1 / open_gop=0 / weightp=2 / keyint=60 / keyint_min=6 / scenecut=40 / intra_refresh=0 / rc_lookahead=50 / rc=abr / mbtree=1 / bitrate=1500 / ratetol=1.0 / qcomp=0.60 / qpmin=0 / qpmax=69 / qpstep=4 / ip_ratio=1.40 / aq=1:1.00
Tagged date : UTC 2014-12-03 06:51:32

Audio
ID : 2
Format : AAC
Format/Info : Advanced Audio Codec
Format profile : LC
Codec ID : 40
Duration : 28mn 31s
Duration_LastFrame : -9ms
Bit rate mode : Constant
Bit rate : 128 Kbps
Channel(s) : 2 channels
Channel positions : Front: L R
Sampling rate : 48.0 KHz
Compression mode : Lossy
Stream size : 26.1 MiB (8%)
Разбит на эпизоды: Да
Качество видео: WEB-DL
Формат видео: MP4
Видео: MPEG4 Video (H264) 854x480 (16:9) 23.976fps 1500Kbps
Аудио: AAC 48000Hz stereo 128kbps
Скриншоты
   
Торрент: Зарегистрирован [21 июл 2015, 01:38] Скачать торрент
Скачать торрент
[ Размер 59.1 КБ ]
Статус:
 
.torrent скачан: 13 раз
Хэш: 8bd798931d9bc5567668433dc7e678d7979f0e19
Размер: 1.46 ГБ (1 569 551 993 байт)
   
Аватара пользователя
DrChalupa
Администратор
Администратор
 
Раздал: 7.46 ТБ
Скачал: 2.85 ГБ
Ратио: 2684.533
Сообщения: 29003
Зарегистрирован: 30 окт 2014, 09:42

Объявления

Вернуться в Гонзо-фильмы / Gonzo & All Sex



cron